Series / TV Shows torrents - Other torrents

Great British Railway Journeys S08E08 Chapeltown to Doncaster torrent

Download Direct: Great British Railway Journeys S08E08 Chapeltown to Doncaster - No Client needed
(0) (0)
Download torrent: Great British Railway Journeys S08E08 Chapeltown to Doncaster torrent download
Torrent created: 11 Jan 2017 21:51:49
Torrent added: 11 Jan 2017 22:25:02 Report this torrent as fake!
Torrent's info hash: 42B57E4A27B76D4FDFA698ECD087990425E22C4A
Category: Series / TV Shows / Other
Seeds: - Scraping... Last scraped 3 h ago
Leeches: -
Downloads: -
Announce(s):
Tracker S L DL
http://explodie.org:6969/announce---
http://tracker.tfile.me/announce---
http://bigfoot1942.sektori.org:6969/announce---
udp://eddie4.nl:6969/announce---
udp://tracker4.piratux.com:6969/announce---
udp://tracker.trackerfix.com:80/announce
udp://tracker.pomf.se:80/announce
udp://torrent.gresille.org:80/announce
udp://9.rarbg.me:2710/announce
udp://tracker.leechers-paradise.org:6969/announce
udp://glotorrents.pw:6969/announce
udp://tracker.opentrackr.org:1337/announce
udp://tracker.blackunicorn.xyz:6969/announce
udp://tracker.internetwarriors.net:1337/announce
udp://p4p.arenabg.ch:1337/announce
udp://tracker.coppersurfer.tk:6969/announce
udp://9.rarbg.to:2710/announce
udp://tracker.openbittorrent.com:80/announce
http://p4p.arenabg.ch:1337/announce
http://open.touki.ru/announce.php
http://mgtracker.org:6969/announce
http://mgtracker.org:2710/announce
udp://explodie.org:6969/announce
udp://9.rarbg.me:2720/announce
udp://9.rarbg.me:2780/announce
Total Size: 496.21 MB
Files:
Great British Railway Journeys S08E08 Chapeltown to Doncaster/Great British Railway Journeys S08E08 Chapeltown to Doncaster.mp4 - 495.15 MB
Great British Railway Journeys S08E08 Chapeltown to Doncaster/Great British Railway Journeys S08E08 Chapeltown to Doncaster.jpg - 1.03 MB
Great British Railway Journeys S08E08 Chapeltown to Doncaster/About this torrent.txt - 1.97 KB
Great British Railway Journeys S08E08 Chapeltown to Doncaster/Great British Railway Journeys S08E08 Chapeltown to Doncaster.srt - 37.96 KB
Great British Railway Journeys S08E08 Chapeltown to Doncaster/Torrent Downloaded From ExtraTorrent.cc.txt - 0 B
Great British Railway Journeys S08E08 Chapeltown to Doncaster/Torrent Downloaded From Katcr.co - Kickasstorrents.txt - 72 B

Description

Great British Railway Journeys S08E08 Chapeltown to Doncaster

From Chapeltown, Michael heads to Wharncliffe Crags, where he plucks up courage to follow in the terrifying footholds of the Victorian daredevil who made rock climbing a sport. The relative calm of academia beckons at Sheffield University but, face to face with a hagfish, Michael's visit to the Alfred Denny Collection proves an eye-opener.

At Conisbrough, Michael learns how Victorians flocked to visit the castle which inspired Sir Walter Scott's immensely popular novel, Ivanhoe. This leg of his journey, following what was once known as the North Country Continental service, finishes in the engineering centre of Doncaster, where Bradshaw's leads him to investigate an enlightened Victorian's school for deaf children.

(with soft subtitles)

First broadcast: 11 January 2017
Duration: 30 minutes

[img https://extraimage.net/images/2017/01/11/c61d12aee467c16c69414f349e19af22.jpg[/img]

Media info:-

General
Format : MPEG-4
Format profile : Base Media
Codec ID : isom (isom/iso2/avc1/mp41)
File size : 495 MiB
Duration : 29mn 0s
Overall bit rate mode : Variable
Overall bit rate : 2 387 Kbps
Writing application : Lavf57.25.100

Video
ID : 1
Format : AVC
Format/Info : Advanced Video Codec
Format profile : [email protected]/* */
Format settings, CABAC : Yes
Format settings, ReFrames : 2 frames
Codec ID : avc1
Codec ID/Info : Advanced Video Coding
Duration : 29mn 0s
Bit rate mode : Variable
Bit rate : 2 288 Kbps
Maximum bit rate : 3 500 Kbps
Width : 1 280 pixels
Height : 720 pixels
Display aspect ratio : 16:9
Frame rate mode : Constant
Frame rate : 25.000 fps
Color space : YUV
Chroma subsampling : 4:2:0
Bit depth : 8 bits
Scan type : Progressive
Bits/(Pixel*Frame) : 0.099
Stream size : 475 MiB (96%)

Audio
ID : 2
Format : AAC
Format/Info : Advanced Audio Codec
Format profile : LC
Codec ID : 40
Duration : 28mn 59s
Bit rate mode : Constant
Bit rate : 93.5 Kbps
Channel(s) : 2 channels
Channel positions : Front: L R
Sampling rate : 48.0 KHz
Frame rate : 46.875 fps (1024 spf)
Compression mode : Lossy
Stream size : 19.4 MiB (4%)

Comments: