Movies torrents - Other torrents

Im Not Ashamed 2016 English Movies HDRip XviD AAC New Source with... torrent

Download Direct: Im Not Ashamed 2016 English Movies HDRip XviD AAC New Source with... - No Client needed
(0) (0)
Download torrent: Im Not Ashamed 2016 English Movies HDRip XviD AAC New Source with... torrent download
Torrent created: 11 Jan 2017 21:59:39
Torrent added: 11 Jan 2017 22:25:02 Report this torrent as fake!
Torrent's info hash: 9E56CE591F7BE94D8D4E6E0EE476DFABB9549225
Category: Movies / Other
Seeds: - Scraping... Last scraped 3 h ago
Leeches: -
Downloads: -
Announce(s):
Tracker S L DL
http://explodie.org:6969/announce---
http://tracker.tfile.me/announce---
http://bigfoot1942.sektori.org:6969/announce---
udp://eddie4.nl:6969/announce---
udp://tracker4.piratux.com:6969/announce---
udp://tracker.trackerfix.com:80/announce
udp://tracker.pomf.se:80/announce
udp://torrent.gresille.org:80/announce
udp://9.rarbg.me:2710/announce
udp://tracker.leechers-paradise.org:6969/announce
udp://glotorrents.pw:6969/announce
udp://tracker.opentrackr.org:1337/announce
udp://tracker.blackunicorn.xyz:6969/announce
udp://tracker.internetwarriors.net:1337/announce
udp://p4p.arenabg.ch:1337/announce
udp://tracker.coppersurfer.tk:6969/announce
udp://9.rarbg.to:2710/announce
udp://tracker.openbittorrent.com:80/announce
udp://tracker.publicbt.com:80/announce
http://tracker.publicbt.com/announce
udp://coppersurfer.tk:6969/announce
http://tracker.btcake.com/announce
http://tracker.aletorrenty.pl:2710/announce
http://mgtracker.org:2710/announce
udp://explodie.org:6969/announce
http://retracker.krs-ix.ru/announce
Total Size: 706.11 MB
Files:
Im Not Ashamed 2016 English Movies HDRip XviD AAC New Source with Sample ☻rDX☻/Sample ~ Im Not Ashamed 2016 English Movies HDRip XviD AAC New Source ☻rDX☻.mkv - 7.13 MB
Im Not Ashamed 2016 English Movies HDRip XviD AAC New Source with Sample ☻rDX☻/Im Not Ashamed 2016 English Movies HDRip XviD AAC New Source ☻rDX☻.mkv - 698.98 MB

Description

Im Not Ashamed 2016 English Movies HDRip XviD AAC New Source with Sample ☻rDX☻

SCREEN SHOTS:



or

http://postimage.co.nr/2017/1/gps/1.html

Format : Matroska
Format version : Version 4 / Version 2
File size : 699 MiB
Duration : 1 h 51 min
Overall bit rate : 878 kb/s
Movie name : Im Not Ashamed 2016 English Movies HDRip XviD AAC New Source ☻rDX☻

Video
ID : 1
Format : AVC
Format/Info : Advanced Video Codec
Format profile : [email protected]/* */
Format settings, CABAC : Yes
Format settings, ReFrames : 5 frames
Codec ID : V_MPEG4/ISO/AVC
Duration : 1 h 51 min
Bit rate : 718 kb/s
Width : 720 pixels
Height : 384 pixels
Display aspect ratio : 16:9
Original display aspect ratio : 16:9
Frame rate mode : Constant
Frame rate : 23.976 FPS
Standard : Component
Color space : YUV
Chroma subsampling : 4:2:0
Bit depth : 8 bits
Scan type : Progressive
Bits/(Pixel*Frame) : 0.108
Stream size : 558 MiB (80%)
Title : ☻rDX☻
Writing library : XviD

Audio
ID : 2
Format : AC-3
Format/Info : Audio Coding 3
Mode extension : CM (complete main)
Format settings, Endianness : Big
Codec ID : A_AC3
Duration : 1 h 51 min
Bit rate mode : Constant
Bit rate : 160 kb/s
Channel(s) : 2 channels
Channel positions : Front: L R
Sampling rate : 48.0 kHz
Frame rate : 31.250 FPS (1536 spf)
Bit depth : 16 bits
Compression mode : Lossy
Stream size : 127 MiB (18%)
Title : ☻rDX☻
Writing library : Lavc57.51.100 ac3_fixed
Default : Yes
Forced : No



IMDB : http://www.imdb.com/title/tt4950110/

Comments: